Encuentra tu película por título, actor o director.



Blog dedicado a los amantes del cine clásico. El mayor índice de películas clásicas de todo internet, para bajar y ver online completamente gratis,
dobladas en castellano, version original con subtítulos en español (V.O.S.E), cine mudo, películas en blanco y negro,
ciclos completos, del cine descatalogado de ayer y siempre.

Portal » , , , , , » Bailando nace el amor ( 1942 ) Español y VOSE

Bailando nace el amor ( 1942 ) Español y VOSE

Cover, caratula, dvd: Bailando nace el amor | 1942 | You were never
Bailando nace el amor | 1942 | You were never
La tradición en la acaudalada familia argentina de los Acuna es que las hijas se casen por orden de edad. Cuando la mayor se casa, las otras dos hermanas apremian a la segunda, María, para que busque marido. Pero María todavía no ha encontrado a un hombre que le guste

DURACIÓN: 98 min.
PAÍS: EE.UU
DIRECTOR: William A. Seiter
GUIÓN: Delmer Daves & Michael Fessier
MÚSICA: Leigh Harline, Jerome Kern, Johnny Mercer
FOTOGRAFÍA: Ted Tetzlaff (B&W)
REPARTO: Fred Astaire, Rita Hayworth, Adolphe Menjou, Isobel Elsom, Leslie Brooks, Adele Mara, Gus Schilling, Barbara Brown, Douglas Leavitt, Xavier Cugat
PRODUCTORA: Columbia Pictures
GÉNERO: Cine clásico, comedia.
PREMIOS:
1942: 3 nominaciones al Oscar: Mejor banda sonora (Musical), canción, sonido

CAPTURAS
Caps: Bailando nace el amor | 1942 | You were never

IDIOMA: Dual Castellano / Inglés con subtítulos en español

MEDIAINFO:


Bailando nace el amor (1942)(Dual-Esp-Ing+Subs-Esp).Dvdrip.Divx.05.0.Mp3.by.Odinko.(CineClasicoConecta2).mkv
Format : Matroska
Format version : Version 4 / Version 2
File size : 692 MiB
Duration : 1h 33mn
Overall bit rate mode : Variable
Overall bit rate : 1 036 Kbps
Movie name : Bailando nace el amor ( 1942 ) - MKV creado por Odinko de Cine Clásico Conecta2
Encoded date : UTC 2013-08-07 17:39:50
Writing application : mkvmerge v6.3.0 ('You can't stop me!') built on Jun 28 2013 20:09:41
Writing library : libebml v1.3.0 + libmatroska v1.4.0


Video
ID : 1
Format : MPEG-4 Visual
Format settings, BVOP : No
Format settings, QPel : No
Format settings, GMC : No warppoints
Format settings, Matrix : Default (H.263)
Codec ID : V_MS/VFW/FOURCC / DX50
Codec ID/Hint : DivX 5
Duration : 1h 33mn
Bit rate : 779 Kbps
Width : 640 pixels
Height : 464 pixels
Display aspect ratio : 1.379
Frame rate mode : Constant
Frame rate : 25.000 fps
Color space : YUV
Chroma subsampling : 4:2:0
Bit depth : 8 bits
Scan type : Progressive
Compression mode : Lossy
Bits/(Pixel*Frame) : 0.105
Stream size : 520 MiB (75%)
Title : Cine Clásico Conecta2
Writing library : DivX 5.1.1 (Maupiti) (UTC 2003-11-19)
Default : Yes
Forced : No


Audio #1
ID : 2
Format : MPEG Audio
Format version : Version 1
Format profile : Layer 3
Mode : Joint stereo
Codec ID : A_MPEG/L3
Codec ID/Hint : MP3
Duration : 1h 33mn
Bit rate mode : Variable
Bit rate : 120 Kbps
Nominal bit rate : 128 Kbps
Channel(s) : 2 channels
Sampling rate : 48.0 KHz
Compression mode : Lossy
Stream size : 80.2 MiB (12%)
Title : Castellano mp3
Writing library : LAME3.90.
Encoding settings : -m j -V 4 -q 2 -lowpass 17.6 --abr 128
Language : Spanish
Default : Yes
Forced : No


Audio #2
ID : 3
Format : MPEG Audio
Format version : Version 1
Format profile : Layer 3
Mode : Joint stereo
Mode extension : MS Stereo
Codec ID : A_MPEG/L3
Codec ID/Hint : MP3
Duration : 1h 33mn
Bit rate mode : Variable
Bit rate : 117 Kbps
Nominal bit rate : 128 Kbps
Channel(s) : 2 channels
Sampling rate : 48.0 KHz
Compression mode : Lossy
Stream size : 78.1 MiB (11%)
Title : Ingles mp3
Writing library : LAME3.90.
Encoding settings : -m j -V 4 -q 2 -lowpass 17.6 --abr 128
Language : English
Default : No
Forced : No


Text
ID : 4
Format : UTF-8
Codec ID : S_TEXT/UTF8
Codec ID/Info : UTF-8 Plain Text
Title : Español
Language : Spanish
Default : Yes
Forced : No


Menu
00:00:00.000 : en:Chapter 1
00:10:00.000 : en:Chapter 2
00:20:00.000 : en:Chapter 3
00:30:00.000 : en:Chapter 4
00:40:00.000 : en:Chapter 5
00:50:00.000 : en:Chapter 6
01:00:00.000 : en:Chapter 7
01:05:00.000 : en:Chapter 8
01:10:00.000 : en:Chapter 9
01:15:00.000 : en:Chapter 10
01:20:00.000 : en:Chapter 20

Descargar Bailando nace el amor



 
Copyguay © 2014. DESCARGA CINE CLÁSICO CONECTA2 - All Rights Reserved