Encuentra tu película por título, actor o director.



Blog dedicado a los amantes del cine clásico. El mayor índice de películas clásicas de todo internet, para bajar y ver online completamente gratis,
dobladas en castellano, version original con subtítulos en español (V.O.S.E), cine mudo, películas en blanco y negro,
ciclos completos, del cine descatalogado de ayer y siempre.

Portal » , , , , , » La Dama de Shanghai ( 1947 ) Dual+Subtítulos

La Dama de Shanghai ( 1947 ) Dual+Subtítulos

Cover, carátula, dvd: La Dama de Shanghai | 1947 | The Lady From Shanghai | Cine clásico
La Dama de Shanghai | 1947 | The Lady From Shanghai

INFORMACIÓN
DURACIÓN DE LA PELÍCULA: 87 Min.
PAÍS: Estados Unidos
DIRIGIDA POR: Orson Welles
GUIONISTA: Orson Welles (Basada en la novela: Sherwood King)
MÚSICA: Heinz Rochelle
FOTOGRAFÍA: Charles Lawton Jr. (B&W)
INTÉRPRETES: Rita Hayworth, Orson Welles, Everett Sloane, Glenn Anders, Ted de Corsia, Erskine Sanford, Gus Schilling, Carl Frank, Louis Merrill, Evelyn Ellis, Harry Shannon
PRODUCIDA POR: Columbia Pictures
GÉNERO & TEMÁTICA: Cine negro. Intriga, Grandes clásicos del cine

SINOPSIS
Michael O'Hara (Orson Welles), un marinero irlandés, entra a trabajar en un yate a las órdenes de un inválido casado con una mujer fatal (Rita Hayworth) y queda atrapado en una maraña de intrigas y asesinatos.

Sin duda alguna uno de los mejores films del maestro Orson Welles a lo largo de su carrera.

CAPTURAS
Capturas, imágenes, fotografías de la película: La Dama de Shanghai | 1947 | The Lady From Shanghai
Más imágenes de la película en: http://imagenesdecineclasico.blogspot.com/2013/09/la-dama-de-shanghai-1947-fotografias-de.html

IDIOMA: Dual Castellano / Inglés con subtítulos en español

MEDIAINFO DEL ARCHIVO:

La.dama.de.Shanghai.(1947).(Dual-Esp-Ing+Suba-Esp).DVD-Rip.XviD-mp3.by.Odinko.(CineClasicoConecta2).mkv
Format : Matroska
Format version : Version 4 / Version 2
File size : 1.23 GiB
Duration : 1h 23mn
Overall bit rate : 2 096 Kbps
Movie name : La dama de Shanghai (1947) - MKV por Odinko de Cine Clásico Conecta2
Encoded date : UTC 2013-08-14 16:50:15
Writing application : mkvmerge v6.3.0 ('You can't stop me!') built on Jun 28 2013 20:09:41
Writing library : libebml v1.3.0 + libmatroska v1.4.0

Video
ID : 1
Format : MPEG-4 Visual
Format profile : Advanced Simple@L5
Format settings, BVOP : Yes
Format settings, QPel : No
Format settings, GMC : No warppoints
Format settings, Matrix : Default (MPEG)
Codec ID : V_MS/VFW/FOURCC / XVID
Codec ID/Hint : XviD
Duration : 1h 23mn
Bit rate : 1 798 Kbps
Width : 640 pixels
Height : 480 pixels
Display aspect ratio : 4:3
Frame rate mode : Constant
Frame rate : 25.000 fps
Color space : YUV
Chroma subsampling : 4:2:0
Bit depth : 8 bits
Scan type : Progressive
Compression mode : Lossy
Bits/(Pixel*Frame) : 0.234
Stream size : 1.05 GiB (86%)
Writing library : XviD 1.1.0 (UTC 2005-11-22)
Default : Yes
Forced : No

Audio #1
ID : 2
Format : MPEG Audio
Format version : Version 1
Format profile : Layer 3
Codec ID : A_MPEG/L3
Codec ID/Hint : MP3
Duration : 1h 23mn
Bit rate mode : Constant
Bit rate : 128 Kbps
Channel(s) : 1 channel
Sampling rate : 48.0 KHz
Compression mode : Lossy
Stream size : 76.9 MiB (6%)
Title : Castellano MP3
Language : Spanish
Default : Yes
Forced : No

Audio #2
ID : 3
Format : MPEG Audio
Format version : Version 1
Format profile : Layer 3
Codec ID : A_MPEG/L3
Codec ID/Hint : MP3
Duration : 1h 23mn
Bit rate mode : Constant
Bit rate : 128 Kbps
Channel(s) : 1 channel
Sampling rate : 48.0 KHz
Compression mode : Lossy
Stream size : 76.9 MiB (6%)
Title : Inglés MP3
Default : No
Forced : No

Text #1
ID : 4
Format : UTF-8
Codec ID : S_TEXT/UTF8
Codec ID/Info : UTF-8 Plain Text
Title : Español
Language : Spanish
Default : Yes
Forced : No

Text #2
ID : 5
Format : UTF-8
Codec ID : S_TEXT/UTF8
Codec ID/Info : UTF-8 Plain Text
Title : Inglés
Language : English
Default : No
Forced : No

Menu
00:00:00.000 : en:Chapter 1
00:10:00.000 : en:Chapter 2
00:20:00.000 : en:Chapter 3
00:30:00.000 : en:Chapter 4
00:40:00.000 : en:Chapter 5
00:50:00.000 : en:Chapter 6
01:00:00.000 : en:Chapter 7
01:05:00.000 : en:Chapter 8
01:10:00.000 : en:Chapter 9
01:15:00.000 : en:Chapter 10
01:20:00.000 : en:Chapter 20

Descargar La Dama de Shanghai 1947



 
Copyguay © 2014. DESCARGA CINE CLÁSICO CONECTA2 - All Rights Reserved