Encuentra tu película por título, actor o director.



Blog dedicado a los amantes del cine clásico. El mayor índice de películas clásicas de todo internet, para bajar y ver online completamente gratis,
dobladas en castellano, version original con subtítulos en español (V.O.S.E), cine mudo, películas en blanco y negro,
ciclos completos, del cine descatalogado de ayer y siempre.

Portal » , , , » El diablo de las aguas turbias ( 1954 ) Dual+Subtítulos

El diablo de las aguas turbias ( 1954 ) Dual+Subtítulos

Cover, Caratula, Dvd: Hell and High Water | 1954 | El diablo de las aguas turbias
El diablo de las aguas turbias | 1954 | Hell and High Water


DURACIÓN DE LA PELÍCULA: 103 min.
PAÍS: Estados Unidos
DIRIGIDA POR: Samuel Fuller
GUIONISTA(s): Samuel Fuller, Jesse Lasky Jr. (Historia: David Hempstead)
MÚSICA: Alfred Newman
FOTOGRAFÍA: Joseph MacDonald
INTÉRPRETES: Richard Widmark, Bella Darvi, Victor Francen, Cameron Mitchell, Gene Evans, David Wayne, Stephen Bekassy, Richard Loo
PRODUCIDA POR: Twentieth Century-Fox
GÉNERO & TEMÁTICA: Aventuras. Drama | Submarinos
PREMIOS: 1954: Nominada al Oscar: Mejores efectos especiales
UPLOADER: Odinko

SINOPSIS
Adam Jones, capitán retirado de la marina, ha sido elegido por un equipo de la inteligencia internacional para una nueva misión: debe capitanear un submarino que lleve hasta Alaska al Profesor Montel, un científico experto en energía atómica, y a su joven colaboradora. La expedición, en principio científica, se desvela de vital importancia cuando los tres descubren que se está tramando un plan que puede hacer estallar la III Guerra Mundial.



CAPTURAS
Imagenes, capturas: El diablo de las aguas turbias | 1954 | Hell and High Water
Más imágenes capturadas de este ripeo en: Imágenes de cine clásico

IDIOMA: Dual Castellano / Inglés con subtítulos en español

MEDIAINFO DEL ARCHIVO:

El.diablo.de.las.aguas.turbias.(1954).(Dual-Esp-Ing+Subs-Esp).DVD-Rip.XviD-mp3.by.Odinko.(CineClasicoConecta2).mkv
Format : Matroska
Format version : Version 4 / Version 2
File size : 979 MiB
Duration : 1h 38mn
Overall bit rate : 1 385 Kbps
Movie name : El diablo de las aguas turbias (1954) - MKV por Odinko de Cine Clásico Conecta2
Encoded date : UTC 2013-08-14 17:10:05
Writing application : mkvmerge v6.3.0 ('You can't stop me!') built on Jun 28 2013 20:09:41
Writing library : libebml v1.3.0 + libmatroska v1.4.0

Video
ID : 1
Format : MPEG-4 Visual
Format profile : Advanced Simple@L5
Format settings, BVOP : Yes
Format settings, QPel : No
Format settings, GMC : No warppoints
Format settings, Matrix : Default (H.263)
Codec ID : V_MS/VFW/FOURCC / XVID
Codec ID/Hint : XviD
Duration : 1h 38mn
Bit rate : 1 101 Kbps
Width : 712 pixels
Height : 272 pixels
Display aspect ratio : 2.618
Frame rate mode : Constant
Frame rate : 25.000 fps
Color space : YUV
Chroma subsampling : 4:2:0
Bit depth : 8 bits
Scan type : Progressive
Compression mode : Lossy
Bits/(Pixel*Frame) : 0.227
Stream size : 779 MiB (80%)
Writing library : XviD 1.1.2 (UTC 2006-11-01)
Default : Yes
Forced : No

Audio #1
ID : 2
Format : MPEG Audio
Format version : Version 1
Format profile : Layer 3
Mode : Joint stereo
Mode extension : MS Stereo
Codec ID : A_MPEG/L3
Codec ID/Hint : MP3
Duration : 1h 38mn
Bit rate mode : Constant
Bit rate : 128 Kbps
Channel(s) : 2 channels
Sampling rate : 48.0 KHz
Compression mode : Lossy
Stream size : 90.5 MiB (9%)
Language : Spanish
Default : Yes
Forced : No

Audio #2
ID : 3
Format : MPEG Audio
Format version : Version 1
Format profile : Layer 3
Mode : Joint stereo
Mode extension : MS Stereo
Codec ID : A_MPEG/L3
Codec ID/Hint : MP3
Duration : 1h 38mn
Bit rate mode : Constant
Bit rate : 128 Kbps
Channel(s) : 2 channels
Sampling rate : 48.0 KHz
Compression mode : Lossy
Stream size : 90.5 MiB (9%)
Language : English
Default : No
Forced : No

Text
ID : 4
Format : UTF-8
Codec ID : S_TEXT/UTF8
Codec ID/Info : UTF-8 Plain Text
Language : Spanish
Default : Yes
Forced : No

Menu
00:00:00.000 : en:Chapter 1
00:10:00.000 : en:Chapter 2
00:20:00.000 : en:Chapter 3
00:30:00.000 : en:Chapter 4
00:40:00.000 : en:Chapter 5
00:50:00.000 : en:Chapter 6
01:00:00.000 : en:Chapter 7
01:05:00.000 : en:Chapter 8
01:10:00.000 : en:Chapter 9
01:15:00.000 : en:Chapter 10
01:20:00.000 : en:Chapter 20

Descargar El diablo de las aguas turbias 1954



 
Copyguay © 2014. DESCARGA CINE CLÁSICO CONECTA2 - All Rights Reserved