Encuentra tu película por título, actor o director.



Blog dedicado a los amantes del cine clásico. El mayor índice de películas clásicas de todo internet, para bajar y ver online completamente gratis,
dobladas en castellano, version original con subtítulos en español (V.O.S.E), cine mudo, películas en blanco y negro,
ciclos completos, del cine descatalogado de ayer y siempre.

Portal » , , , , , , » Sangre sobre el Sol ( 1945 ) Dual+Subts

Sangre sobre el Sol ( 1945 ) Dual+Subts

Cover, dvd, carátula: Sangre sobre el Sol | 1945 | Blood on the Sun
Sangre sobre el Sol | 1945 | Blood on the Sun

Ficha de la película
DURACIÓN: 94 min.
PAÍS: Estados Unidos
DIRECTOR: Frank Lloyd
GUIÓN: Lester Cole
MÚSICA: Miklos Rozsa
FOTOGRAFÍA: Theodor Sparkuhl (B&W)
REPARTO: James Cagney, Sylvia Sidney, Wallace Ford, Rosemary DeCamp, John Emery, Robert Armstrong
PRODUCTORA: Cagney Productions
GÉNERO: Acción, Intriga, Drama, Años 30. Cine clásico

PREMIOS:
1945: Oscar: Mejor dirección artística (Blanco & Negro)

Sinopsis
Años treinta.James Cagney es un editor americano que trabaja en un periódico de Tokio y descubre un plan japonés para conquistar el mundo. Cuando la noticia llega a los quioscos las autoridades japonesas piden que se retire el periódico de la calle. Cagney no accede, y está decidido a desenmascarar todo el asunto tras enterarse que su confidente y amigo ha sido asesinado cuando intentaba abandonar el país junto a su esposa. Debe apoderarse de un documento llamado "Plan Tanaka", que lo explica todo, para salvar al mundo de la ocupación japonesa.

Imagenes / Capturas
Imagenes de la pelicula: Sangre sobre el Sol | 1945 | Blood on the Sun
Mas imágenes de la película en: "imagenesdecineclasico.blogspot.com"

IDIOMA: Dual Castellano / Inglés con subtítulos en español

MEDIAINFO DEL ARCHIVO:


Sangre.sobre.el.sol(1945)..(Dual-Esp-Ing+Subs-Esp).HDrip.XviD-AC3.by.Odinko.(CineClasicoConecta2).mkv
Format : Matroska
Format version : Version 4 / Version 2
File size : 1.54 GiB
Duration : 1h 33mn
Overall bit rate : 2 346 Kbps
Movie name : Sangre sobre el sol (1945) - MKV por Odinko de Cine Clásico Conecta2
Encoded date : UTC 2013-08-14 16:23:10
Writing application : mkvmerge v6.3.0 ('You can't stop me!') built on Jun 28 2013 20:09:41
Writing library : libebml v1.3.0 + libmatroska v1.4.0

Video
ID : 2
Format : MPEG-4 Visual
Format profile : Advanced Simple@L5
Format settings, BVOP : Yes
Format settings, QPel : No
Format settings, GMC : No warppoints
Format settings, Matrix : Default (H.263)
Codec ID : V_MS/VFW/FOURCC / DX50
Codec ID/Hint : DivX 5
Duration : 1h 33mn
Bit rate : 1 404 Kbps
Width : 720 pixels
Height : 404 pixels
Display aspect ratio : 16:9
Frame rate mode : Constant
Frame rate : 25.000 fps
Color space : YUV
Chroma subsampling : 4:2:0
Bit depth : 8 bits
Scan type : Progressive
Compression mode : Lossy
Bits/(Pixel*Frame) : 0.193
Stream size : 941 MiB (60%)
Title : Cine Clásico Conecta2 - Odinko
Writing library : XviD 1.2.1 (UTC 2008-12-04)
Default : Yes
Forced : No

Audio #1
ID : 3
Format : AC-3
Format/Info : Audio Coding 3
Mode extension : CM (complete main)
Format settings, Endianness : Big
Codec ID : A_AC3
Duration : 1h 33mn
Bit rate mode : Constant
Bit rate : 448 Kbps
Channel(s) : 2 channels
Channel positions : Front: L R
Sampling rate : 48.0 KHz
Bit depth : 16 bits
Compression mode : Lossy
Stream size : 300 MiB (19%)
Title : Castellano AC3
Language : Spanish
Default : Yes
Forced : No

Audio #2
ID : 4
Format : AC-3
Format/Info : Audio Coding 3
Mode extension : CM (complete main)
Format settings, Endianness : Big
Codec ID : A_AC3
Duration : 1h 33mn
Bit rate mode : Constant
Bit rate : 448 Kbps
Channel(s) : 2 channels
Channel positions : Front: L R
Sampling rate : 48.0 KHz
Bit depth : 16 bits
Compression mode : Lossy
Stream size : 300 MiB (19%)
Title : Inglés AC3
Language : English
Default : No
Forced : No

Text
ID : 1
Format : UTF-8
Codec ID : S_TEXT/UTF8
Codec ID/Info : UTF-8 Plain Text
Title : Español
Language : Spanish
Default : Yes
Forced : No

Menu
00:00:00.000 : en:Chapter 1
00:10:00.000 : en:Chapter 2
00:20:00.000 : en:Chapter 3
00:30:00.000 : en:Chapter 4
00:40:00.000 : en:Chapter 5
00:50:00.000 : en:Chapter 6
01:00:00.000 : en:Chapter 7
01:05:00.000 : en:Chapter 8
01:10:00.000 : en:Chapter 9
01:15:00.000 : en:Chapter 10
01:20:00.000 : en:Chapter 20


Sigue el enlace para descargar

Descargar Sangre sobre el Sol 1945



 
Copyguay © 2014. DESCARGA CINE CLÁSICO CONECTA2 - All Rights Reserved