Encuentra tu película por título, actor o director.



Blog dedicado a los amantes del cine clásico. El mayor índice de películas clásicas de todo internet, para bajar y ver online completamente gratis,
dobladas en castellano, version original con subtítulos en español (V.O.S.E), cine mudo, películas en blanco y negro,
ciclos completos, del cine descatalogado de ayer y siempre.

Portal » , , , , » La esclava libre ( 1957 )

La esclava libre ( 1957 )

La esclava libre | 1957 | Band of Angels Caratula, cover, dvd
La esclava libre | 1957 | Band of Angels

Ficha de la película
DURACIÓN: 125 min.
PAÍS: Estados Unidos
DIRECTOR: Raoul Walsh
GUIÓN: John Twist, Ivan Goff, Ben Roberts
MÚSICA: Max Steiner
FOTOGRAFÍA: Lucien Ballard
REPARTO: Clark Gable, Yvonne De Carlo, Sidney Poitier, Efrem Zimbalist Jr., Patric Knowles
PRODUCTORA: Warner Bros. Pictures
GÉNERO: Drama, Racismo, Esclavitud, Siglo XIX

Sinopsis
Amantha Starr es una bella y rica joven que vive en la lujosa plantación sureña de su padre. Pero, cuando éste muere, es acusada de ser hija de una sirvienta negra, por lo que es despojada de sus tierras y convertida en esclava. Trasladada a Nueva Orleáns para ser vendida, un apuesto caballero la compra en una subasta de esclavos.

Imagenes / Capturas
Capturas de pantalla: La esclava libre | 1957 | Band of Angels

IDIOMA: Dual Castellano / Inglés con subtítulos en español

MEDIAINFO DEL ARCHIVO

La.esclava.libre.(1957).(Dual-Esp-Ing+Subs-Esp).DVD-Rip.XviD-AC3.by.Odinko.(CineClasicoConecta2).mkv
Format : Matroska
Format version : Version 4 / Version 2
File size : 1.93 GiB
Duration : 2h 7mn
Overall bit rate : 2 174 Kbps
Movie name : La esclava libre ( 1957 ) - MKV creado por Odinko de Cine Clásico Conecta2
Encoded date : UTC 2013-08-08 16:31:02
Writing application : mkvmerge v6.3.0 ('You can't stop me!') built on Jun 28 2013 20:09:41
Writing library : libebml v1.3.0 + libmatroska v1.4.0

Video
ID : 1
Format : MPEG-4 Visual
Format profile : Advanced Simple@L5
Format settings, BVOP : Yes
Format settings, QPel : No
Format settings, GMC : No warppoints
Format settings, Matrix : Default (MPEG)
Codec ID : V_MS/VFW/FOURCC / XVID
Codec ID/Hint : XviD
Duration : 2h 7mn
Bit rate : 1 747 Kbps
Width : 704 pixels
Height : 384 pixels
Display aspect ratio : 1.85:1
Frame rate mode : Constant
Frame rate : 23.976 fps
Color space : YUV
Chroma subsampling : 4:2:0
Bit depth : 8 bits
Scan type : Progressive
Compression mode : Lossy
Bits/(Pixel*Frame) : 0.270
Stream size : 1.55 GiB (80%)
Title : Cine Clásico Conecta2
Writing library : XviD 1.1.2 (UTC 2006-11-01)
Language : English
Default : Yes
Forced : No

Audio #1
ID : 2
Format : AC-3
Format/Info : Audio Coding 3
Mode extension : CM (complete main)
Format settings, Endianness : Big
Codec ID : A_AC3
Duration : 2h 7mn
Bit rate mode : Constant
Bit rate : 192 Kbps
Channel(s) : 2 channels
Channel positions : Front: L R
Sampling rate : 48.0 KHz
Bit depth : 16 bits
Compression mode : Lossy
Stream size : 175 MiB (9%)
Title : Castellano AC3
Language : Spanish
Default : Yes
Forced : No

Audio #2
ID : 3
Format : AC-3
Format/Info : Audio Coding 3
Mode extension : CM (complete main)
Format settings, Endianness : Big
Codec ID : A_AC3
Duration : 2h 7mn
Bit rate mode : Constant
Bit rate : 192 Kbps
Channel(s) : 1 channel
Channel positions : Front: C
Sampling rate : 48.0 KHz
Bit depth : 16 bits
Compression mode : Lossy
Stream size : 175 MiB (9%)
Title : Inglés AC3
Language : English
Default : No
Forced : No

Text
ID : 4
Format : UTF-8
Codec ID : S_TEXT/UTF8
Codec ID/Info : UTF-8 Plain Text
Title : Español
Language : Spanish
Default : Yes
Forced : No

Menu
00:00:00.000 : en:Chapter 1
00:10:00.000 : en:Chapter 2
00:20:00.000 : en:Chapter 3
00:30:00.000 : en:Chapter 4
00:40:00.000 : en:Chapter 5
00:50:00.000 : en:Chapter 6
01:00:00.000 : en:Chapter 7
01:05:00.000 : en:Chapter 8
01:10:00.000 : en:Chapter 9
01:15:00.000 : en:Chapter 10
01:20:00.000 : en:Chapter 20

Sigue el enlace para descargar

Descargar La esclava libre 1957



 
Copyguay © 2014. DESCARGA CINE CLÁSICO CONECTA2 - All Rights Reserved