Encuentra tu película por título, actor o director.



Blog dedicado a los amantes del cine clásico. El mayor índice de películas clásicas de todo internet, para bajar y ver online completamente gratis,
dobladas en castellano, version original con subtítulos en español (V.O.S.E), cine mudo, películas en blanco y negro,
ciclos completos, del cine descatalogado de ayer y siempre.

Portal » , , , , , » Quatermass 2 ( 1957 )

Quatermass 2 ( 1957 )

Cover caratula dvd: Quatermass II | 1957 | (Quatermass 2)
Quatermass II | 1957 | (Quatermass 2)


DURACIÓN: 85 min.
PAÍS: Reino Unido
DIRECTOR: Val Guest
GUIÓN: Nigel Kneale & Val Guest
MÚSICA: James Bernard
FOTOGRAFÍA: Gerald Gibbs (B&W)
REPARTO: Brian Donlevy, John Longden, Sidney James, Bryan Forbes, Vera Day, William Franklyn, Charles Lloyd Pack, Michael Ripper
PRODUCTORA: Hammer Films
GÉNERO: Ciencia ficción. Terror | Extraterrestres. Secuela

SINOPSIS
El profesor Quatermass descubre por casualidad, investigando un área de mucha actividad de meteoritos, una secreta instalación gubernamental rodeada de fuertes medidas de seguridad. Aparentemente el misterioso complejo se dedica a la fabricación de comida sintética, pero Quatermass llega a la terrible conclusión de que los extraterrestres están invadiendo la Tierra con esta instalación como tapadera. Para salvar al país y al mundo entero de los invasores, Quatermass deberá enfrentarse a peligros terribles con un final incierto. (FILMAFFINITY)

CAPTURAS
Quatermass II | 1957 | (Quatermass 2)

IDIOMA: Dual Castellano / Inglés con subtítulos en español

MEDIAINFO DEL ARCHIVO:

Quatermass_II_(Val_Guest,1957).(Dual-Esp-Ing Subs-Esp).(MKV)\Quatermass II (Val Guest,1957).(Dual-Esp-Ing+Subs-Esp).DVDRip.XviD.AC3.By.Odinko.CineClasicoConecta2.mkv
Format : Matroska
Format version : Version 4 / Version 2
File size : 1.62 GiB
Duration : 1h 21mn
Overall bit rate : 2 863 Kbps
Movie name : Quatermass II (1957) - MKV por Odinko de Cine Clásico Conecta2
Encoded date : UTC 2013-08-14 16:07:36
Writing application : mkvmerge v6.3.0 ('You can't stop me!') built on Jun 28 2013 20:09:41
Writing library : libebml v1.3.0 + libmatroska v1.4.0

Video
ID : 1
Format : MPEG-4 Visual
Format profile : Simple@L3
Format settings, BVOP : Yes
Format settings, QPel : No
Format settings, GMC : No warppoints
Format settings, Matrix : Default (MPEG)
Codec ID : V_MS/VFW/FOURCC / XVID
Codec ID/Hint : XviD
Duration : 1h 21mn
Bit rate : 2 294 Kbps
Width : 704 pixels
Height : 528 pixels
Display aspect ratio : 4:3
Frame rate mode : Constant
Frame rate : 25.000 fps
Color space : YUV
Chroma subsampling : 4:2:0
Bit depth : 8 bits
Scan type : Progressive
Compression mode : Lossy
Bits/(Pixel*Frame) : 0.247
Stream size : 1.30 GiB (80%)
Title : Cine Clásico Conecta2 - Odinko
Writing library : XviD 1.0.3 (UTC 2004-12-20)
Default : Yes
Forced : No

Audio #1
ID : 2
Format : AC-3
Format/Info : Audio Coding 3
Mode extension : CM (complete main)
Format settings, Endianness : Big
Codec ID : A_AC3
Duration : 1h 21mn
Bit rate mode : Constant
Bit rate : 256 Kbps
Channel(s) : 2 channels
Channel positions : Front: L R
Sampling rate : 48.0 KHz
Bit depth : 16 bits
Compression mode : Lossy
Stream size : 149 MiB (9%)
Title : Castellano AC3
Language : Spanish
Default : Yes
Forced : No

Audio #2
ID : 3
Format : AC-3
Format/Info : Audio Coding 3
Mode extension : CM (complete main)
Format settings, Endianness : Big
Codec ID : A_AC3
Duration : 1h 21mn
Bit rate mode : Constant
Bit rate : 256 Kbps
Channel(s) : 2 channels
Channel positions : Front: L R
Sampling rate : 48.0 KHz
Bit depth : 16 bits
Compression mode : Lossy
Stream size : 149 MiB (9%)
Title : Inglés AC3
Language : English
Default : No
Forced : No

Text
ID : 4
Format : UTF-8
Codec ID : S_TEXT/UTF8
Codec ID/Info : UTF-8 Plain Text
Title : Español
Language : Spanish
Default : Yes
Forced : No

Menu
00:00:00.000 : en:Chapter 1
00:10:00.000 : en:Chapter 2
00:20:00.000 : en:Chapter 3
00:30:00.000 : en:Chapter 4
00:40:00.000 : en:Chapter 5
00:50:00.000 : en:Chapter 6
01:00:00.000 : en:Chapter 7
01:05:00.000 : en:Chapter 8
01:10:00.000 : en:Chapter 9
01:15:00.000 : en:Chapter 10
01:20:00.000 : en:Chapter 20


Descargar Quatermass 2 ( 1957 )



 
Copyguay © 2014. DESCARGA CINE CLÁSICO CONECTA2 - All Rights Reserved