Encuentra tu película por título, actor o director.



Blog dedicado a los amantes del cine clásico. El mayor índice de películas clásicas de todo internet, para bajar y ver online completamente gratis,
dobladas en castellano, version original con subtítulos en español (V.O.S.E), cine mudo, películas en blanco y negro,
ciclos completos, del cine descatalogado de ayer y siempre.

Portal » , , , , , » Qué sucedió entonces? (Quatermass 3) ( 1967 )

Qué sucedió entonces? (Quatermass 3) ( 1967 )

Cover, dvd:  ¿Qué sucedió entonces? (Quatermass 3) | 1967 | Quatermass and the Pit (AKA Five Million Years to Earth)
 ¿Qué sucedió entonces? (Quatermass 3) | 1967 | Quatermass and the Pit (AKA Five Million Years to Earth)


DURACIÓN: 97 min.
PAÍS: Reino Unido
DIRECTOR: Roy Ward Baker
GUIÓN: Nigel Kneale
MÚSICA: Tristam Cary
FOTOGRAFÍA: Arhtur Grant
REPARTO: James Donald, Andrew Keir, Barbara Shelley, Julian Glover, Duncan Lamont, Bryan Marshall, Peter Copley, Edwin Richfield, Grant Taylor, Maurice Good
PRODUCTORA: Warner Bros. Pictures presenta una produccion Hammer Films
GÉNERO: Ciencia ficción. Terror | Extraterrestres
( Subtítulos y sincronización por Gator960 )

SINOPSIS
Durante unas excavaciones en Londres, aparece un extraño objeto de gran tamaño. Al principio se cree que puede ser una bomba de la Segunda Guerra Mundial lanzada por los nazis. El ejército descubre que no es nada parecido y llama al profesor Quatermass, que junto con el doctor en antropología Roney y su ayudante Bárbara Judd intentaran explicar el enigma. El profesor Quatermass descubre en su interior unas criaturas alienígenas que intentaron conquistar la Tierra en tiempos prehistóricos y, a través de sus experimentos en los primeros hombres, alteraron la evolución humana hasta llegar a su estado actual. Aunque adormecidas por muchos siglos, ahora existe el peligro de que puedan despertar y tratar de dominar a la humanidad.



Esta tercera entrega de la saga Quatermass tiene, como gran parte de este tipo de películas, una primera mitad francamente recomendable, con una atmósfera artesanal bastante conseguida y un trabajo narrativo modesto pero con un fantástico conocimiento de los resortes del arte de “contar” (el principal acierto de esta cinta es la progresión del guión a la hora de introducirnos en ese misterioso hallazgo y el crescendo de las posteriores y cada vez más perturbadoras situaciones). Luego, hacia la mitad y sobre todo en la resolución, cae en la ingenuidad y extravagancia típica de los sesenta en todos estos temas pseudo científicos (todo un pelín precipitado y muy pillado con pinzas). Y esto a algunos se les atragantará y a otros les parecerá un ejemplo del irresistible encanto de la Hammer.

CAPTURAS
 ¿Qué sucedió entonces? (Quatermass 3) | 1967 | Quatermass and the Pit (AKA Five Million Years to Earth)

IDIOMA: Dual Castellano / Inglés con subtítulos en español

MEDIAINFO DEL ARCHIVO:

Que.sucedio.entonces.(Dual-Esp-Ing+Subs-Esp).HDrip.XviD-AC3.by.Odinko.Subs.Gator960.(CineClasicoConecta2).mkv
Format : Matroska
Format version : Version 4 / Version 2
File size : 1.86 GiB
Duration : 1h 33mn
Overall bit rate : 2 831 Kbps
Movie name : ¿ Que sucedió entonces ? ( Quatermas 3 ) (1967) MKV por Odinko y subtítulos por Gator960 - Cine Clásico Conecta2
Encoded date : UTC 2013-08-14 16:02:12
Writing application : mkvmerge v6.3.0 ('You can't stop me!') built on Jun 28 2013 20:09:41
Writing library : libebml v1.3.0 + libmatroska v1.4.0

Video
ID : 2
Format : MPEG-4 Visual
Format profile : Advanced Simple@L5
Format settings, BVOP : Yes
Format settings, QPel : No
Format settings, GMC : No warppoints
Format settings, Matrix : Default (MPEG)
Codec ID : V_MS/VFW/FOURCC / XVID
Codec ID/Hint : XviD
Duration : 1h 33mn
Bit rate : 2 134 Kbps
Width : 720 pixels
Height : 432 pixels
Display aspect ratio : 1.667
Frame rate mode : Constant
Frame rate : 25.000 fps
Original frame rate : 23.976 fps
Color space : YUV
Chroma subsampling : 4:2:0
Bit depth : 8 bits
Scan type : Progressive
Compression mode : Lossy
Bits/(Pixel*Frame) : 0.274
Stream size : 1.40 GiB (75%)
Writing library : XviD 1.2.1 (UTC 2008-12-04)
Default : Yes
Forced : No

Audio #1
ID : 3
Format : AC-3
Format/Info : Audio Coding 3
Mode extension : CM (complete main)
Format settings, Endianness : Big
Codec ID : A_AC3
Duration : 1h 33mn
Bit rate mode : Constant
Bit rate : 192 Kbps
Channel(s) : 2 channels
Channel positions : Front: L R
Sampling rate : 48.0 KHz
Bit depth : 16 bits
Compression mode : Lossy
Stream size : 129 MiB (7%)
Title : Castellano AC3
Language : Spanish
Default : Yes
Forced : No

Audio #2
ID : 4
Format : AC-3
Format/Info : Audio Coding 3
Mode extension : CM (complete main)
Format settings, Endianness : Big
Codec ID : A_AC3
Duration : 1h 33mn
Bit rate mode : Constant
Bit rate : 448 Kbps
Channel(s) : 5 channels
Channel positions : Front: L C R, Side: L R
Sampling rate : 48.0 KHz
Bit depth : 16 bits
Compression mode : Lossy
Stream size : 301 MiB (16%)
Title : Inglés AC3
Language : English
Default : No
Forced : No

Text
ID : 1
Format : UTF-8
Codec ID : S_TEXT/UTF8
Codec ID/Info : UTF-8 Plain Text
Title : Español
Language : Spanish
Default : Yes
Forced : No

Menu
00:00:00.000 : en:Chapter 1
00:10:00.000 : en:Chapter 2
00:20:00.000 : en:Chapter 3
00:30:00.000 : en:Chapter 4
00:40:00.000 : en:Chapter 5
00:50:00.000 : en:Chapter 6
01:00:00.000 : en:Chapter 7
01:05:00.000 : en:Chapter 8
01:10:00.000 : en:Chapter 9
01:15:00.000 : en:Chapter 10
01:20:00.000 : en:Chapter 20

Descargar ¿Qué sucedió entonces? (Quatermass 3)



 
Copyguay © 2014. DESCARGA CINE CLÁSICO CONECTA2 - All Rights Reserved