Encuentra tu película por título, actor o director.



Blog dedicado a los amantes del cine clásico. El mayor índice de películas clásicas de todo internet, para bajar y ver online completamente gratis,
dobladas en castellano, version original con subtítulos en español (V.O.S.E), cine mudo, películas en blanco y negro,
ciclos completos, del cine descatalogado de ayer y siempre.

Portal » , , , , , » Diez negritos ( 1945 ) Dual+Subtítulos

Diez negritos ( 1945 ) Dual+Subtítulos

Diez negritos | 1945 , Cover, caratula, dvd
Diez negritos | 1945 | And Then There Were None 
(AKA Ten Little Niggers)

Ficha de la película
DURACIÓN DE LA PELÍCULA: 97 minutos
PAÍS: EE.UU
DIRIGIDA POR: René Clair
GUIONISTA: Dudley Nichols (Novela: Agatha Christie)
MÚSICA: Mario Castelnuovo-Tedesco
FOTOGRAFÍA: Lucien Andriot (B&W)
INTÉRPRETES: Walter Huston, Roland Young, Louis Hayward, June Duprez, Barry Fitzgerald, C. Aubrey Smith, Judith Anderson, Mischa Auer
PRODUCIDA POR: 20th Century Fox
GÉNERO & TEMÁTICA: Intriga | Crimen. Asesinos en serie
UPLOADER: Odinko

Sinopsis
Un sujeto reune a un grupo de personas para pasar en una isla, todo el fin de semana.
Cuando estas personas llegan a la isla, resulta que quien les invitó no estaba allí, en su su lugar encuentran una grabación sobre un terrible asesinato y quienes lo habían podido cometer.

Adaptacion a la gran pantalla de un de las conocidas obras de Agatha Christie.

Imagenes / Capturas
Imagenes: Diez negritos | 1945 | And Then There Were None
MÁS CAPTURAS DE LA PELÍCULA EN: http://imagenesdecineclasico.blogspot.com/2013/09/fotografias-de-la-pelicula-diez.html

IDIOMA: Dual Castellano / Inglés con subtítulos en español

MEDIAINFO DEL ARCHIVO



Diez.negritos.(1945).(Dual-Esp-Ing+Subs-Esp).DVD-Rip.XviD-mp3.By.Odinko.(CineClasicoConecta2).mkv
Format : Matroska
Format version : Version 4 / Version 2
File size : 1.27 GiB
Duration : 1h 37mn
Overall bit rate : 1 873 Kbps
Movie name : Diez negritos ( 1945 ) - Mkv creado por Odinko de Cine Clasico Conecta2
Encoded date : UTC 2013-08-29 12:24:05
Writing application : mkvmerge v6.3.0 ('You can't stop me!') built on Jun 28 2013 20:09:41
Writing library : libebml v1.3.0 + libmatroska v1.4.0

Video
ID : 1
Format : MPEG-4 Visual
Format profile : Simple@L3
Format settings, BVOP : No
Format settings, QPel : No
Format settings, GMC : No warppoints
Format settings, Matrix : Default (H.263)
Codec ID : V_MS/VFW/FOURCC / XVID
Codec ID/Hint : XviD
Duration : 1h 37mn
Bit rate : 1 580 Kbps
Width : 624 pixels
Height : 480 pixels
Display aspect ratio : 4:3
Frame rate mode : Constant
Frame rate : 23.976 fps
Color space : YUV
Chroma subsampling : 4:2:0
Bit depth : 8 bits
Scan type : Progressive
Compression mode : Lossy
Bits/(Pixel*Frame) : 0.220
Stream size : 1.07 GiB (84%)
Writing library : XviD 1.1.2 (UTC 2006-11-01)
Default : Yes
Forced : No

Audio #1
ID : 2
Format : MPEG Audio
Format version : Version 1
Format profile : Layer 3
Codec ID : A_MPEG/L3
Codec ID/Hint : MP3
Duration : 1h 37mn
Bit rate mode : Constant
Bit rate : 128 Kbps
Channel(s) : 2 channels
Sampling rate : 48.0 KHz
Compression mode : Lossy
Stream size : 88.9 MiB (7%)
Title : Castellano Mp3
Writing library : LAME3.96r
Encoding settings : -m s -V 4 -q 3 -lowpass 17.5 -b 128
Language : Spanish
Default : Yes
Forced : No

Audio #2
ID : 3
Format : MPEG Audio
Format version : Version 1
Format profile : Layer 3
Codec ID : A_MPEG/L3
Codec ID/Hint : MP3
Duration : 1h 37mn
Bit rate mode : Constant
Bit rate : 128 Kbps
Channel(s) : 2 channels
Sampling rate : 48.0 KHz
Compression mode : Lossy
Stream size : 88.9 MiB (7%)
Title : Inglés Mp3
Writing library : LAME3.96r
Encoding settings : -m s -V 4 -q 3 -lowpass 17.5 -b 128
Language : English
Default : No
Forced : No

Text
ID : 4
Format : UTF-8
Codec ID : S_TEXT/UTF8
Codec ID/Info : UTF-8 Plain Text
Title : Español
Language : Spanish
Default : Yes
Forced : No

Menu
00:00:00.000 : en:Chapter 1
00:10:00.000 : en:Chapter 2
00:20:00.000 : en:Chapter 3
00:30:00.000 : en:Chapter 4
00:40:00.000 : en:Chapter 5
00:50:00.000 : en:Chapter 6
01:00:00.000 : en:Chapter 7
01:05:00.000 : en:Chapter 8
01:10:00.000 : en:Chapter 9
01:15:00.000 : en:Chapter 10
01:20:00.000 : en:Chapter 20

Sigue el enlace para descargar

Descargar Diez negritos 1945



 
Copyguay © 2014. DESCARGA CINE CLÁSICO CONECTA2 - All Rights Reserved